Sivappu Eanakku Pidikkum (2017) Tamil - 720p - DTH - x264-MTR





General
Format                      : Matroska
Format version              : Version 4 / Version 2
File size                   : 1.20 GiB
Duration                    : 1 h 53 min
Overall bit rate            : 1 516 kb/s
Encoded date                : UTC 2017-05-28 22:31:40
Writing application         : mkvmerge v7.8.0 ('River Man') 64bit built on Mar 27 2015 16:31:37
Writing library             : libebml v1.3.1 + libmatroska v1.4.2

Video
ID                          : 1
Format                      : AVC
Format/Info                 : Advanced Video Codec
Format profile              : [email protected]
Format settings, CABAC      : No
Format settings, ReFrames   : 3 frames
Codec ID                    : V_MPEG4/ISO/AVC
Duration                    : 1 h 53 min
Bit rate                    : 1 386 kb/s
Width                       : 1 024 pixels
Height                      : 576 pixels
Display aspect ratio        : 16:9
Frame rate mode             : Constant
Frame rate                  : 25.000 FPS
Color space                 : YUV
Chroma subsampling          : 4:2:0
Bit depth                   : 8 bits
Scan type                   : Progressive
Bits/(Pixel*Frame)          : 0.094
Stream size                 : 1.10 GiB (91%)
Language                    : English
Default                     : Yes
Forced                      : No

Audio
ID                          : 2
Format                      : MPEG Audio
Format version              : Version 1
Format profile              : Layer 3
Mode                        : Joint stereo
Mode extension              : MS Stereo
Codec ID                    : A_MPEG/L3
Codec ID/Hint               : MP3
Duration                    : 1 h 53 min
Bit rate mode               : Constant
Bit rate                    : 128 kb/s
Channel(s)                  : 2 channels
Sampling rate               : 44.1 kHz
Frame rate                  : 38.281 FPS (1152 spf)
Compression mode            : Lossy
Stream size                 : 104 MiB (8%)
Writing library             : LAME3.98.2UUUUUUU+√ęs
Language                    : English
Default                     : Yes
Forced                      : No




Sivappu Eanakku Pidikkum (2017) Tamil - 720p - DTH - x264-MTRSivappu Eanakku Pidikkum (2017) Tamil - 720p - DTH - x264-MTR

[B]SINGLE DIRECT FAST LINKS[/B]


http://www.heroupload.com/f56386d4d28e2747/Sivappu.Eanakku.Pidikkum.2017.Tamil.720p.DTH.UNTOUCHED.x264-MTR.mkv


Dear visitor, you went to the site as unregistered user.
We recommend that you create or enter the site your name.

Add a comment

Name:*
E-Mail:
Bold Italic Underline Strike | Align left Center Align right | Insert smilies Insert link URLInsert protected URL Select color | Add Hidden Text Insert Quote Convert selected text from selection to Cyrillic (Russian) alphabet Insert spoiler
Enter the code: *
Include security image CAPCHA.
Refresh Code
 

|||||||

«    March 2023    »
MonTueWedThuFriSatSun
 12345
6789101112
13141516171819
20212223242526
2728293031 

Mini Chat

{chat}

Popular searches